#TITLE:Dancing Samurai;
#SUBTITLE:;
#ARTIST:Kamui Gakupo;
#TITLETRANSLIT:;
#SUBTITLETRANSLIT:;
#ARTISTTRANSLIT:;
#CREDIT:;
#BANNER:Kamui Gakupo - Dancing Samurai-banner.jpg;
#BACKGROUND:Kamui Gakupo - Dancing Samurai-bg.jpg;
#LYRICSPATH:Kamui Gakupo - Dancing Samurai.lrc;
#CDTITLE:CDTitle.png;
#MUSIC:Kamui Gakupo - Dancing Samurai.ogg;
#OFFSET:0.000;
#SAMPLESTART:57.833;
#SAMPLELENGTH:12.000;
#SELECTABLE:YES;
#BPMS:0.000=142.000;
#STOPS:;
#BGCHANGES:;
// cache tags:
#FIRSTBEAT:3.500;
#LASTBEAT:213.250;
#SONGFILENAME:songs/Vocaloid Party/Kamui Gakupo - Dancing Samurai/Kamui Gakupo - Dancing Samurai.sm;
#HASMUSIC:1;
#HASBANNER:1;
#MUSICLENGTH:93.549;
// end cache tags

//---------------dance-single - ----------------
#NOTES:
     dance-single:
     :
     Challenge:
     10:
     0.814,0.798,0.363,0.214,0.695,479.000,34.000,20.000,29.000,1.000:
0000
0000
0000
0000
0000
0000
0000
0010
,
0010
0000
0000
0000
0102
0000
0000
1M03
0000
0000
1010
0000
0000
0000
0100
0001
,
1000
0100
1000
0001
1000
0000
0001
0000
M101
0000
0000
0000
0100
0000
0010
0000
,
0110
1000
0010
0100
110M
0000
0010
0001
,
M011
0000
0010
0000
0001
0000
0100
0000
0001
0000
0100
0001
0000
0100
0010
0000
,
0100
0000
0001
0000
1000
0100
0010
0100
0010
0001
1000
0010
0100
0001
0010
0100
,
2000
0000
0010
0000
3210
0000
0000
0000
0320
0000
0000
0000
1M30
0000
0000
1001
,
0000
0000
1100
0000
0000
0000
0010
0000
0001
0000
0000
1000
0001
0000
0100
0000
,
0010
0000
1000
0000
0010
0000
0100
0000
0001
0000
1000
0000
0100
0000
0010
0100
,
0000
0000
1000
0000
0010
0000
1000
0000
0001
0000
0100
0000
0010
0000
0100
0001
,
0000
0000
0000
0000
2010
0000
0000
0000
30M2
0000
0000
0000
0103
0000
0000
1100
,
0000
0000
1001
0000
0000
0000
0100
0000
0001
0000
0000
1000
0001
0000
0010
0000
,
0001
0000
1000
0000
0010
0000
1000
0000
0100
0000
0010
0000
0001
0000
1000
0100
,
0000
0000
1000
0000
0001
0100
0001
0010
0001
0100
0001
0100
0010
0000
0100
0000
,
1MM1
0000
1000
0000
01M0
0000
0010
0000
0100
0000
1000
0010
0000
0100
0010
0000
,
0100
0000
0001
0000
M100
0001
0010
0000
0001
0000
0010
0100
0000
0010
0001
0000
,
1000
0000
0100
0000
100M
0000
0001
0000
1000
0000
0100
1000
0000
0001
0100
0010
,
1000
0000
0100
0000
0010
0000
0100
0000
1000
0000
0010
0000
0100
0001
1000
0010
,
0100
0001
1000
0010
1000
0000
0010
0000
0100
0000
1000
0000
0100
0000
0001
1000
,
0000
0000
0001
0000
0100
0000
0010
0000
1000
0000
0100
0010
0000
0000
MM10
0000
,
1001
0000
0000
0000
0010
0000
1000
0000
0010
0000
0100
0000
0001
0000
1000
0100
,
0000
0000
0010
0000
0100
0000
0001
0000
0100
0000
1000
0100
0000
0000
M1M0
0000
,
0011
0000
0000
0000
1000
0000
0001
0000
0100
0000
1000
0000
0100
0000
0010
1000
,
0000
0000
0001
0000
1000
0000
0010
0000
0100
0000
0001
0100
0000
0100
0010
0000
,
1000
0010
0100
0001
0100
1000
0100
0010
,
1000
0000
0100
1000
0000
0000
0001
0000
0100
0000
0010
0000
1000
0000
0010
0000
,
0100
0001
1000
0100
2000
0000
0000
0000
0010
0000
0000
0000
3100
0000
0001
0000
,
1000
0000
0010
0000
0200
0000
0000
0310
0000
0000
01M1
0000
0000
0000
0010
0000
,
1000
0001
0010
0001
0010
0100
1000
0100
,
1000
0000
0001
0010
0200
0000
0000
0000
1300
0000
0100
0000
0010
0001
1000
0001
,
1000
0001
0100
0000
0010
0000
0100
0000
0001
0000
1000
0000
0100
0000
1000
0001
,
0000
0000
0100
0000
0010
0000
0000
10M0
0000
0000
M100
0001
0000
0100
0010
0000
,
0100
0000
0001
0010
0100
0000
1000
0000
0001
0000
0100
0000
0001
0000
1000
0000
,
0001
0000
1000
0100
0000
0000
1001
0000
0110
0000
0101
0000
0010
0001
0000
0001
,
0000
0001
0100
0000
0010
0100
0010
1000
0001
0010
0100
1000
0100
0000
0010
0000
,
0110
0000
0001
0000
0100
0010
0100
0001
0010
0100
0010
0100
0010
0000
0001
0000
,
0101
0000
0010
0000
1000
0001
1000
0010
0100
0001
0010
0100
0010
0000
0001
0000
,
1010
0000
0100
0000
0010
1000
0100
0010
0100
1000
0001
0010
0100
0000
0010
0000
,
1001
0000
0000
0000
0010
0001
0010
0100
0010
0100
1000
0100
0010
0000
0001
0000
,
0011
0000
0100
0000
0010
1000
0010
0100
0001
0100
0001
0100
0010
0000
1000
0000
,
1100
0000
0100
0000
1000
0001
0100
0010
0100
0001
1000
0100
0010
0000
0001
0000
,
0101
0000
0010
0000
0010
1000
0001
0100
0010
0100
0001
1000
0010
0000
0000
0000
,
1001
0000
0000
0000
1000
0010
1000
0001
0100
0001
0010
0100
1000
0000
0000
0000
,
1010
0000
0000
0000
0100
0001
1000
0010
0100
0001
0100
0010
1000
0000
0000
0000
,
0010
0100
0010
0100
0001
0000
0000
0101
0000
0000
1001
0000
0000
0000
1000
0001
,
0100
0010
0100
0010
0100
0000
0010
0000
1000
0000
0001
0010
0100
1000
0100
0000
,
2000
0000
3010
0000
1000
0001
0100
0000
0101
0000
0010
0100
1000
0010
0100
0000
,
0002
0000
0013
0000
0001
0010
0100
0000
1010
0000
0100
0010
0100
0001
1000
0010
,
0100
0001
0010
0000
0200
0000
2300
0000
3002
0M00
0023
M000
0230
000M
2300
00M0
,
3002
0M00
0023
M000
0031
0000
1000
0000
0001
0000
0100
0010
0000
1000
0010
0000
,
0100
0000
0010
0000
1000
0001
0100
0000
0010
0000
1000
0100
0000
1000
0010
0000
,
0100
0000
0010
0000
0100
0001
0010
0000
0100
0000
1000
0010
0000
0100
0001
0000
,
0100
0010
0110
0100
1001
0100
0002
0M00
,
0M00
0000
0M00
0000
0M03
000M
0000
0000
0000
0000
0000
0000
0000
0000
0000
0000
;

//---------------dance-single - Blank----------------
#NOTES:
     dance-single:
     Blank:
     Beginner:
     1:
     0.084,0.085,0.000,0.000,0.000,55.000,0.000,0.000,0.000,0.000:
0000
0000
0000
0000
,
0000
0000
0000
0000
,
0000
1000
0000
0000
,
0000
0001
0000
0000
,
0000
0100
0000
0000
,
0000
0010
0000
0010
,
0000
1000
0000
0000
,
0000
0001
0000
0000
,
0000
1000
0000
0000
,
0000
0010
0000
0000
,
0000
0100
0000
0000
,
0000
0010
0000
0000
,
0000
0100
0000
0000
,
0000
0001
0000
0000
,
0000
1000
0000
0000
,
0000
0010
0000
0000
,
0000
0100
0000
0000
,
0000
0001
0000
0001
,
0000
1000
0000
0000
,
0000
0010
0000
0000
,
0000
0100
0000
0000
,
0000
0001
0000
0000
,
0000
1000
0000
0000
,
0000
0100
0000
0000
,
0000
0010
0000
0000
,
0000
0100
0000
0000
,
0000
0010
0000
0000
,
0000
0001
0000
0000
,
0000
0100
0000
0000
,
0000
0010
0000
0000
,
0000
0100
0000
0000
,
0000
0010
0000
0000
,
0000
1000
0000
0000
,
0000
0100
0000
0000
,
0000
0010
0000
0000
,
0000
0001
0000
0000
,
0000
0100
0000
0000
,
0000
0010
0000
0000
,
0000
0100
0000
0000
,
0000
0001
0000
0000
,
0000
1000
0000
0000
,
0000
0100
0000
0000
,
0000
0010
0000
0000
,
0000
0100
0000
0000
,
0000
0010
0000
0000
,
0000
0001
0000
0000
,
0000
0010
0000
0000
,
0000
0100
0000
0000
,
0000
1000
0000
0000
,
0000
0001
0000
0000
,
0000
0100
0000
0000
,
0000
0010
0000
0000
,
0000
0010
0000
0010
,
0000
0100
0000
0000
;

//---------------dance-single - ----------------
#NOTES:
     dance-single:
     :
     Hard:
     8:
     0.606,0.541,0.374,0.342,0.112,330.000,35.000,32.000,4.000,0.000:
0000
0000
0000
0000
,
0000
0000
0000
0000
1010
0000
0000
1010
0000
0000
1010
0000
0000
0000
0000
0000
,
0000
0000
0000
0000
0100
0000
0010
0000
1000
0000
0001
0000
2000
0000
0000
3000
,
1001
0000
0000
0000
0001
0000
0100
0000
0010
0000
1000
0000
0020
0000
0000
0030
,
1010
0000
0000
0000
0010
0000
1000
0000
0001
0000
0100
0000
0002
0000
0000
0003
,
0101
0000
2000
0001
0001
0001
3200
0001
,
0001
0000
0301
0000
0102
0000
0000
0003
0120
0000
0000
0000
1030
0000
0000
0110
,
0000
1000
0000
0010
0010
0000
1000
0001
,
1000
0001
0100
0010
2000
0000
3100
0010
,
0200
0000
1300
0001
0100
0010
0100
0001
,
0010
0000
0000
0000
1200
0000
0000
0300
2001
0000
0000
0000
3010
0000
0000
1001
,
0000
0010
0000
1000
1000
0000
0010
1000
,
0001
0100
0010
1000
0002
0000
0013
0001
,
0200
0000
0310
1000
0010
0100
0010
0000
,
MMMM
0000
0100
0010
0100
1010
0000
0100
,
0010
0001
1000
0100
0010
0110
0000
0100
,
1000
0001
0100
0010
0100
0101
0000
0001
,
1000
0001
0100
0010
0100
0001
2000
0000
,
0000
0000
3001
0010
0011
0000
0001
0100
,
0101
0000
0000
0000
0001
0000
1000
0000
0010
0000
2000
0200
0000
0000
0000
0000
,
3300
0000
0010
0001
0011
0000
1000
0010
,
1010
0000
0000
0000
1000
0000
0001
0000
0100
0000
0020
2000
0000
0000
0000
0000
,
3030
0000
0010
0100
0101
0000
1000
0100
,
1001
0000
0000
0000
0001
0100
0001
0000
1000
0000
0200
0020
0000
0000
0000
0000
,
0330
0001
0010
0100
0010
0001
1000
0010
,
1000
0010
0100
0000
0010
0000
2000
0000
,
0000
0000
3001
1000
0001
0000
0000
0000
1010
0000
0000
0000
0010
0000
0100
0000
,
0010
0000
1000
0000
0010
0000
0000
0100
0000
0000
0100
0000
0000
0000
0010
0000
,
1000
0100
0010
0001
0100
0010
1000
0001
,
0100
0000
0001
0000
2000
0000
0000
0000
0002
3000
0020
0000
0000
0000
0000
0003
,
0200
0030
1300
0000
0001
0000
0010
0000
0100
0000
1000
0000
0001
0000
0100
0000
,
0010
0000
1000
0000
0001
0000
0000
1000
0000
0000
1000
0000
0000
0000
0000
0000
,
0010
1000
0001
0010
0001
0100
0010
1000
,
0100
0010
0001
0100
0100
0100
0001
1000
,
0010
1000
0010
1000
0020
0000
0000
0030
1100
0000
0000
0000
1000
0000
0000
0010
,
1000
0010
0000
1000
0001
0100
0010
0000
,
1100
0000
1000
0010
0100
0010
1000
0100
,
0020
0000
0031
0100
0010
1000
0001
0100
,
0010
0000
0000
0000
0201
0000
0000
0300
0021
0000
0000
0030
0001
0000
0000
0001
,
0010
0000
0001
0000
0000
0000
1000
0000
1000
0000
0001
0000
1000
0100
0010
0000
,
0001
1000
0100
0010
0200
0000
1300
0001
,
0020
0000
0031
0100
0001
0010
0011
0000
,
0000
0000
1000
0100
0010
0100
1100
0000
,
0000
0000
1000
0001
1000
0010
1001
0000
,
0000
0000
0000
0000
0110
0000
0000
0110
0000
0000
0110
0000
0000
0000
0000
0000
,
0000
0000
1000
0001
0100
0110
0000
0010
,
1000
0100
0010
0100
0010
0011
0000
0100
,
0001
0000
0010
0000
0100
0000
0010
0000
0100
0000
1000
0001
1000
0001
1000
0000
,
0010
0100
0001
0010
0100
0010
0001
1000
,
0100
0000
0010
0000
0001
0000
1000
0000
0010
0000
1000
0010
0000
0000
0100
0000
,
0001
0000
0010
0000
0100
0000
1000
0000
0010
0000
0100
0010
0000
0000
1000
0000
,
0001
0000
0100
0000
0010
0000
1000
0000
0001
0000
1000
0001
0000
0000
0100
0000
,
0010
0100
0010
0010
1000
1000
0020
0000
,
0000
0030
0110
0000
0000
0000
0000
0000
;

//---------------dance-single - ----------------
#NOTES:
     dance-single:
     :
     Easy:
     3:
     0.218,0.228,0.064,0.043,0.000,133.000,6.000,4.000,0.000,0.000:

0000
0000
0000
0000
,
0000
0000
0000
0000
,
0000
1000
0000
0010
,
0000
1000
0001
0001
,
0000
0100
0000
0010
,
0000
0100
0100
0001
,
0001
1000
0000
0010
,
0000
0000
0100
0001
,
0010
0100
0000
1000
,
0000
0001
0100
0010
,
0000
1000
0000
0001
,
0000
0000
0100
0001
,
0100
0010
0000
1000
,
0000
0010
0010
0010
,
0000
1000
0000
0010
,
0000
1000
0000
0001
,
0000
1000
0000
0100
,
0000
1000
0001
0200
,
0000
0310
0000
1000
,
0000
0010
0100
0001
,
0000
1000
0000
0010
,
0000
0100
0001
0010
,
0000
0100
0000
1000
,
0000
0010
0100
0010
,
0100
0001
0000
1000
,
0010
1000
0000
0001
,
0000
1000
0000
0010
,
0000
0100
0001
1000
,
0010
1000
0000
0010
,
0000
1000
1000
1000
,
0000
0010
0000
0100
,
0000
0001
0000
0100
,
0010
1000
0000
0010
,
0000
0100
0000
0010
,
0010
1000
0000
0110
,
0000
1001
0000
1000
,
0000
0010
0000
0100
,
0000
0001
1000
0001
,
0000
1010
0000
0101
,
0000
1000
0001
0100
,
0010
1000
0000
0001
,
0000
0100
0100
0100
,
0000
0010
0010
0010
,
0000
1000
1000
1000
,
0000
0001
0000
1000
,
0000
0010
1000
0010
,
0000
0100
0010
0100
,
0000
0001
1000
0001
,
0000
0000
2010
0000
0000
3000
0012
0000
,
0000
1003
0000
0010
,
0000
0100
0010
1000
,
0010
0100
0000
0001
,
0000
1000
0010
0200
,
0000
0310
0000
0000
;

//---------------dance-single - ----------------
#NOTES:
     dance-single:
     :
     Medium:
     6:
     0.475,0.427,0.128,0.053,0.005,294.000,12.000,5.000,0.000,0.000:
0000
0000
0000
0000
,
0000
0000
0000
0000
,
0000
0000
1010
0000
0100
0010
0000
0100
,
0010
1000
0001
0000
0100
0001
0000
0100
,
0001
0010
0100
0000
0010
0100
0000
1000
,
0001
1000
0010
0100
0001
0000
1000
0100
,
1000
0000
1001
0000
0100
0000
0010
1000
,
0010
1000
0000
0100
0010
0000
0001
0100
,
0010
1000
0100
0000
1000
0000
0100
0000
,
0010
0000
0001
0010
0001
0010
0001
0010
,
0001
0000
1000
0000
0010
0000
0100
0001
,
0100
0001
0000
1000
0010
0000
0100
0001
,
0100
0010
1000
0000
0010
0000
0100
0000
,
0001
0000
1000
0001
1000
0001
1000
0000
,
0010
1000
1010
0000
0100
0010
0000
0010
,
1000
0100
0010
0000
0001
0100
0000
0100
,
0001
0100
0010
0000
1000
0001
0000
0001
,
1000
0010
0100
0010
1000
0001
0200
0000
,
0000
0000
0310
0000
1000
0000
0010
0100
,
0010
0000
1000
0001
0100
0001
1000
0000
,
0100
0000
0010
0001
0010
0000
0100
1000
,
0100
0000
1000
0010
0100
0010
1000
0000
,
0100
0000
1000
0000
0010
0000
1000
0001
,
0100
0000
0010
1000
0001
1000
0010
0000
,
0100
0001
0010
0100
0010
0000
0001
1000
,
0001
1000
0100
0000
1000
0000
0010
0000
,
0100
0010
0100
0000
0010
0000
1000
0001
,
0100
0000
0010
0100
0001
0010
0000
0001
,
1000
0100
0010
0100
1000
0000
0010
1000
,
0010
1000
0100
0000
0010
0010
0000
0001
,
0001
0000
1000
0000
0100
0000
0010
0001
,
0100
0000
0010
1000
0100
0010
0000
0000
,
0001
1000
0100
0000
0010
0001
0100
0000
,
0010
0000
1000
0000
0100
0000
0000
0000
1000
0000
0000
0000
1001
0000
0000
0001
,
0000
1000
1001
0000
0010
0000
0100
0001
,
0100
0010
0000
1000
0010
0000
0100
0001
,
0100
0010
1000
0000
0010
0000
0100
0001
,
1000
0000
0100
1000
0100
0010
0001
0000
,
1001
0000
1000
0000
0001
0000
1000
0010
,
0100
0010
0000
1000
0001
0000
0100
0010
,
1000
0001
0100
0000
0010
0000
1000
0001
,
0100
0000
0010
1000
0010
0100
0010
0010
,
0010
0000
0100
0001
0100
0010
0100
0100
,
0100
0000
0010
1000
0001
0100
0001
0001
,
0001
0000
0110
0000
0000
0110
0000
1000
,
0010
1000
0010
0000
1010
0000
0001
0010
,
0001
0000
0100
0000
0011
0000
1000
0100
,
1000
0000
0010
0000
0101
0000
1000
0010
,
1000
0010
2000
0000
0010
0000
3002
0000
,
0100
0000
1003
0000
0010
0100
0000
0010
,
1000
0010
0100
0000
0001
0100
0000
0010
,
1000
0100
0010
0000
0001
1000
0000
0100
,
1000
0100
0010
0000
0001
0000
0202
0000
,
0000
0003
0310
0000
0000
0000
0000
0000
;
